ffmpeg bit_rate分析

原创 2015年11月20日 17:33:23

使用ffmpeg -i 1.flv 命令

Input #0, flv, from '1.flv':
  Duration: 00:01:05.49, start: 0.056000, bitrate: 639 kb/s
    Stream #0:0: Video: h264 (High), yuv420p, 1134x600 [SAR 1:1 DAR 189:100], 29
8967 kb/s, 25 fps, 18 tbr, 1k tbn, 50 tbc

    Stream #0:1: Audio: mp3, 11025 Hz, mono, s16p, 128 kb/s

可以看出,video的bitrate=298967kb/s,明显这个值是偏大的,不对的. 

对照1.flv文件,可以看出,其实x264 的bitrate=800kb/s



那么上面的打印显然不是从x264部分获取的,而是从1.flv文件头获取的.文件头如下:



与flv类似,3gp也是从文件头获取的,所以其实这个值并不可靠,可靠的是总字节除以总时间。


关于码率bitrate,帧率frame rate,分辨率的区别

码率就是数据传输时单位时间传送的数据位数,一般我们用的单位是kbps即千位每秒。通俗一点的理解就是取样率,单位时间内取样率越大,精度就越高,处理出来的文件就越接近原始文件,但是文件体积与取样率是成正比...

视频码率(Bitrate), 帧率(FPS)和分辨率的联系与区别

视频码率,帧率和分辨率到底哪一个影响电影的清晰度 码率:影响体积,与体积成正比:码率越大,体积越大;码率越小,体积越小。 码率就是数据传输时单位时间传送的数据位数,一般我们用的单位是kbps...
  • wishfly
  • wishfly
  • 2015年03月12日 00:57
  • 20305

FFMPEG使用参数详解

目前又开始测MPEG1和MPEG2的解码,在准备编码好的测试序列过程中,需要通过编码器来进行原始视频序列的编码操作,以生成我们需要的测试数据。由于IPP example提供的Encoder不支持MPE...

FFMPEG结构体分析:AVCodecContext

FFMPEG有几个最重要的结构体,包含了解协议,解封装,解码操作,此前已经进行过分析: FFMPEG中最关键的结构体之间的关系 在此不再详述,其中AVCodecContext是包含变量较多的结构体(感...

FFMPEG详解

转自:http://3xin2yi.info/wwwroot/tech/doku.php/tech:multimedia:ffmpeg FFMPEG堪称自由软件中最完备的一套多媒体支持库,它几乎...

ffmpeg使用小结

一、 FFmpeg是什么? 简单说,FFmpeg就是一个很好的,免费的,开源的视频转换工具。详细说,FFmpeg是一个开源免费跨平台的视频和音频流方案,属于自由软件,采用LGPL或GPL许可证(依据...

使用ffmpeg生成I帧

{/*a raw mpeg1 video frame generated by:    ffmpeg -i dragon.jpg  -f mpeg1video -y dragon.mpg  has...

Low-Bit-Rate-Speech-Coding

  • 2010年07月04日 10:14
  • 1.87MB
  • 下载

【Financail Markets】4. Spot Rate Curve 主成成分分析

本来想找ECB的数据做一个例子的,可惜ECB给的数据太全了,加载都好费劲。。。这里就写一下方法步骤吧~ 1)目的: 构建线性模型:,其中因变量是到期时间为 t 的 Spot Rate 的变化量;自变量...
内容举报
返回顶部
收藏助手
不良信息举报
您举报文章:ffmpeg bit_rate分析
举报原因:
原因补充:

(最多只允许输入30个字)