ffmpeg bit_rate分析

原创 2015年11月20日 17:33:23

使用ffmpeg -i 1.flv 命令

Input #0, flv, from '1.flv':
  Duration: 00:01:05.49, start: 0.056000, bitrate: 639 kb/s
    Stream #0:0: Video: h264 (High), yuv420p, 1134x600 [SAR 1:1 DAR 189:100], 29
8967 kb/s, 25 fps, 18 tbr, 1k tbn, 50 tbc

    Stream #0:1: Audio: mp3, 11025 Hz, mono, s16p, 128 kb/s

可以看出,video的bitrate=298967kb/s,明显这个值是偏大的,不对的. 

对照1.flv文件,可以看出,其实x264 的bitrate=800kb/s



那么上面的打印显然不是从x264部分获取的,而是从1.flv文件头获取的.文件头如下:



与flv类似,3gp也是从文件头获取的,所以其实这个值并不可靠,可靠的是总字节除以总时间。


ffmpeg多种码率控制方式的实现

ffmpeg是我们进行视频编解码常用的工具,而对于ffmpeg中编码时对码率的控制方式一直没找合适的教程,无意中在stackoverflow上发现了答案,在此进行总结备忘。 视频编码器常用的码率控制...
  • owen7500
  • owen7500
  • 2016年07月05日 15:49
  • 5847

FFMPEG使用参数详解

目前又开始测MPEG1和MPEG2的解码,在准备编码好的测试序列过程中,需要通过编码器来进行原始视频序列的编码操作,以生成我们需要的测试数据。由于IPP example提供的Encoder不支持MPE...
  • axdc_qa_team
  • axdc_qa_team
  • 2009年05月20日 17:10
  • 34824

FFMPEG结构体分析:AVCodecContext

FFMPEG有几个最重要的结构体,包含了解协议,解封装,解码操作,此前已经进行过分析: FFMPEG中最关键的结构体之间的关系 在此不再详述,其中AVCodecContext是包含变量较多的结构体(感...
  • leixiaohua1020
  • leixiaohua1020
  • 2013年11月08日 00:49
  • 47557

关于码率bitrate,帧率frame rate,分辨率的区别

码率就是数据传输时单位时间传送的数据位数,一般我们用的单位是kbps即千位每秒。通俗一点的理解就是取样率,单位时间内取样率越大,精度就越高,处理出来的文件就越接近原始文件,但是文件体积与取样率是成正比...
  • volcan1987
  • volcan1987
  • 2012年03月05日 13:25
  • 10564

视频码率(Bitrate), 帧率(FPS)和分辨率的联系与区别

视频码率,帧率和分辨率到底哪一个影响电影的清晰度 码率:影响体积,与体积成正比:码率越大,体积越大;码率越小,体积越小。 码率就是数据传输时单位时间传送的数据位数,一般我们用的单位是kbps...
  • wishfly
  • wishfly
  • 2015年03月12日 00:57
  • 23208

ffmpeg 码率控制设置

ffmpeg中CBR(固定码率控制)的设置:                 c->bit_rate = br;                 c->rc_min_rate =br;   ...
  • wishfly
  • wishfly
  • 2016年05月17日 17:54
  • 2439

ffmpeg bit_rate分析

使用ffmpeg -i 1.flv 命令 Input #0, flv, from '1.flv':   Duration: 00:01:05.49, start: 0.056000, bitrate:...
  • anbinger2013
  • anbinger2013
  • 2015年11月20日 17:33
  • 1232

ffmpeg-比特率,帧率和文件大小

比特率和帧率是音视频基本的特性,对于音视频整体的质量有关键作用!如果知道比特率和持续时间,就可以计算输出文件的大小。 1.Frame(frequency)rate introduction 帧率就是每...
  • rootusers
  • rootusers
  • 2014年12月01日 13:52
  • 21104

FFMPEG结构体分析一:AVFormatContext

一、概述        关于AVFormatContext的分析已经有一篇文章了,地址如下:  http://blog.csdn.net/leixiaohua1020/article/details/...
  • GAMEloft9
  • GAMEloft9
  • 2015年05月20日 17:11
  • 581

利用FFmpeg将Jpeg图片转为任意视频容器格式

在一些嵌入式系统中,视频以jpeg图像格式传出来,而且数据量非常大。这种情况下如果要对jpeg图像进行解码并且重新编码成264之类的格式再放入视频容器中会消耗大量的CPU资源,若不是性能特别犀利的CP...
  • oHanTanYanYing
  • oHanTanYanYing
  • 2015年05月20日 16:38
  • 3849
内容举报
返回顶部
收藏助手
不良信息举报
您举报文章:ffmpeg bit_rate分析
举报原因:
原因补充:

(最多只允许输入30个字)